labatory размер рок дробилка

Электрическое фрагментирование как новый способ очистки ...

Исследовались фракции размером [0,3–0,5 мм] и [0,5–4 мм]. ... Электрическое фрагментирование проводилось при помощи установки Selfrag Lab [19]. ... и обычного механического дробления в щековой дробилке с последующим ..... [12] U. Andres, Parameters of disintegration of rock by electrical pulses, Powder...

Подробнее

Download this PDF file - Material Science and Applied Chemistry

present the energy–size relationship and to compare the crushing amenability of the ... size reduction. The most familiar laboratory technique is the drop weight,.

Подробнее

СУЛЬФАТИЗИРУЮЩИЙ ОБЖИГ ЧЕРНОВОГО ... - КиберЛенинка

THE EFFECT OF CHANGES OF HORIZONTAL STRESSES IN ROCK MASS ON ... changes of the Sun's size requires further examination and precise definition of ..... copper flotation concentrate was studied in the laboratory of the shaft furnace. ... Причинами недостаточно эффективной работы щековых дробилок при...

Подробнее

Xpc 200*75 ukuran kecil batu ganda roll crusher-Crusher-ID produk ...

I would like to know more about your rock double roll crusher,Laboratory Double ... Общий запрос о вашем тряхните дробилку двойной бочки, выключатель...

Подробнее

Лабораторные исследования zenith

Индекс Бонда используется для оценки дробимости материала и потребления энергии дробилки. ... Тестирование щебня для определения размера заполнителя (< 2 мм). ... Fully equipped rock testing laboratories ... Laboratory cone

Подробнее

Горный информационно-аналитический бюллетень. Mining ...

It is established that in the field to create Badran ice-rock pillar with the necessary ..... The article discusses and generalizes laboratory studies into development of hematite .... ВОЗОБНОВЛЕНИЕ ПРОИЗВОДСТВА ЩЕКОВЫХ ДРОБИЛОК НА .... селитры (селитр), имеющих, размеры 10-30 нанометров и разделенных...

Подробнее

Горный информационно-аналитический бюллетень ... - ГИАБ

Key words: permafrost, technogenic placers, placer mines, ice-rock filling mass. ..... size structure of a dust and a way of decrease in dust loading are received. ... It were done laboratory and location investigations on use of empty rocks from .... Приведена конструкция звукоизолирующего загрузочного бункера дробилок...

Подробнее

How it's made? Сезоны 1-19 / Как делают спортинвентарь? - EX.ua

14 мар 2013 ... ... Steel, Football Helmets, Resin Figurines, Laboratory Glassware) .... Роскошные спортивные машины (Pipes, Rock Climbing Gear, Leather Bike .... Древесная дробилка, Кегли для боулинга (Turf Grass, Beef Jerky, ... Кол-во: 275, суммарный размер: 124,620,595,215, файл-лист, плей-лист, .xspf.

Подробнее

Горный информационно-аналитический бюллетень. Mining ...

Correlation dependence of the pore size from the average particle diameter of ... Key words: rock fall control and forecasting, open pit mine, electromagnetic ... laboratory experiments with dumping of core samples, evaluation of stressed rocks. ..... осуществляемого в дробилке ДКД-300, установлено снижение качества...

Подробнее

POLYCOM® high-pressure grinding roll for the minerals industry.

Feed size in relation to roll diameter. Compared to the crusher product (left-hand picture) the POLYCOM® ... rock. When softer materials are involved, the service life can even exceed 20,000 hours. ..... From laboratory-scale to industrial reality...

Подробнее

Metal production,Sintering plant,Ceramics Factory

Jan 14, 2015 ... Basalt stone is really a fundamental volcanic rock. ... reduction of hard and large lumps of run-of-mine (ROM) ore is to crush and reduce their size. FRITSCH Laboratory Jaw Crusher PULVERISETTE 1, model I ..... цена дробилка 0- 3ммцена дробилка 0- 3 мм.измельчитель коры дк 6 0 ценаОт первичной...

Подробнее

Crusher | QuickiWiki

Crushers may be used to reduce the size, or change the form, of waste ... of or recycled, or to reduce the size of a solid mix of raw materials (as in rock ore), ..... of the crusher and hence is used only for laboratory purposes and not for heavy duty ..... Concasor Romanian română · Дробилка Russian русский · Mhandamabwe...

Подробнее

[DOC] Как это работает? / How it's made? / Сезоны 1-19, 21 / Серии ...

19-05 239 Рулонный газон, Вяленая говядина, Древесная дробилка, Кегли для боулинга (Turf Grass, Beef Jerky, Wood ... Stream size : 71.0 MiB (77%)

Подробнее

6М073700–Обогащение полезных ископаемых 6М073700 ...

дробилок, мельниц. ... particle size distribution of mineral raw materials ... investigations of the theory of rock failure . .... Technology laboratory experiment.

Подробнее

Основные итоги конференции - Журнал Уголь

31 окт 2012 ... Determination of Rock Deflected Mode in Developing Coal Beds which are Hazardous as Regards Geo and ... Automated Experimental & Laboratory Energotechnological System. Колесниченко Д. С. ..... максимальную производительность и размер ленточного конвейера на ... Конвейер и дробилка.

Подробнее

Облако тегов » Скачать рамки бесплатно | Виньетки | Календари ...

... Labels, laboratory, lace, laces, ladders, lady, Lady Gaga, ladybirds, ladybugs, .... Risko, River, rivers, Road, Roads, Rob, robot, rock, Roger, roll, rolls, Romain, ..... большого разрешения, большое разрешение, большой размер, бомбы, ..... древнерусский, древности, древо, дрель, дрессировщик, дробилка кофе,...

Подробнее

№ 2 (22) июнь 2008 г. - О журнале - Магнитогорский ...

2 июн 2008 ... V. M. Schastlivtsev – chief of laboratory in Russian Academy of. Science , academician ...... тических параметров дробилок, повышение про-.

Подробнее

Скачать - Сахалин Машинери

«Сахалин Машинери» оказала финансовую помощь в размере 10 000 рублей. ..... earth, rock and minerals excavation, loading operations. ... Компания «Амур Машинери» может поставлять щековые самоходные дробилки ..... the visit SOS laboratory specialists had different trainings, such as «SOS Services...

Подробнее

Производители и поставщики испытательных машин ...

... particle size analyzers, particle shape analyzers, pore size, pore volume, ... for rock deformation studies - высокотемпературная испытательная машина, ..... машины), лабораторные мельницы и дробилки, делители образца. ... Analytical and laboratory equipment companies, scientific instrument companies.

Подробнее

Александр Велигура | Facebook

Александр Велигура есть на Facebook. Присоединяйтесь к Facebook, чтобы связаться с Александром Велигурой и найти других друзей. Facebook...

Подробнее

Александр Велигура | Facebook

Александр Велигура есть на Facebook. Присоединяйтесь к Facebook, чтобы связаться с Александром Велигурой и найти других друзей. Facebook...

Подробнее

Каталог - Автомагистрали - Черно море АД - Шумен

The Company's road laboratory has been built in the same area. The laboratory .... 303, two crushing and screening plants for processing of the blasted rock and internal transport excavators, .... дробилок и трех установок для просеивания. Карьер .... Погрузочная машина - 38 шт - размер кофша от 0.4 м - 3.8 м. 15.

Подробнее

zenith to supply comminution and minerals processing equipment to ...

Oct 18, 2013 ... The contract marks yet another milestone in the collaboration of zenith and Aguas Teñidas, creating one of the largest mining operations in...

Подробнее

miscellanea - TranslatorPub.Com

611, fire-assay lab, пробирно-аналитическая лаборатория ... 701, half as much again, в полуторном размере ..... 1334, rock breaker, отбойный молоток,камнедробилка ... 1383, semistationary crusher, полумобильная дробилка.

Подробнее

Промышленные центрифуги машина - Alibaba Group

Размер шрифта: .... Classification: Laboratory Centrifuge; Certification: ISO; Place of Origin: CN;HUN .... Weight: 600kg(STL30 industrial centrifuge machine ); Production Capacity: 1-80t/h; Application:: Suitable for both alluvial and rock .... вибросито для дробилки завода · вибросита производителя · вибросетка для...

Подробнее

10 люксовых производителей велосипедов (Велосипед ...

9 июл 2014 ... Видео: Якщо кохати, то тільки рок-зірку! .... Вернее, вначале были кофемолки, дробилки для перца и соли, каркасы для ... Пер-Олоф Киппеля собираются вручную, а размер переднего колеса может ... В 2012 году Lacoste запустила линию по производству спортивного инвентаря Lacoste LAB.

Подробнее

[DOC] Как это работает? / How it's made? / Сезоны 1-19, 21 / Серии ...

19-05 239 Рулонный газон, Вяленая говядина, Древесная дробилка, Кегли для боулинга (Turf Grass, Beef Jerky, Wood ... Stream size : 71.0 MiB (77%)

Подробнее

[DOC] Как это работает? / How it's made? / Сезоны 1-19, 21 / Серии ...

19-05 239 Рулонный газон, Вяленая говядина, Древесная дробилка, Кегли для боулинга (Turf Grass, Beef Jerky, Wood ... Stream size : 71.0 MiB (77%)

Подробнее

Rotor centrifugal crusher - The cubicator for crushing and upgrading

The impact wall can consist of an anvil ring or a rock shelf. The ample size of the rotor and housing largely eliminates the risk of clogging. The crushing result...

Подробнее

Облако тегов » Скачать рамки бесплатно | Виньетки | Календари ...

... Labels, laboratory, lace, laces, ladders, lady, Lady Gaga, ladybirds, ladybugs, .... Risko, River, rivers, Road, Roads, Rob, robot, rock, Roger, roll, rolls, Romain, ..... большого разрешения, большое разрешение, большой размер, бомбы, ..... древнерусский, древности, древо, дрель, дрессировщик, дробилка кофе,...

Подробнее

Диссертация на тему «Оптимизация процесса дезинтеграции ...

Зарогатский Л.П. Применение инерционной дробилки при переработке .... Briggis C.A., Berman R.A. An investigation of rock breakage and damage in ... D.W., Kapur P.C., Gutsche O. Comminution of minerals in a laboratory-size,...

Подробнее

Centrifugal crushers DC

Product 5 - 10 ... Laboratory · Material Processing Technologies · Contact us ..... Knowledge laboratory · Contact Us · FAQ. ©1991−2014 CJSC«Ural-Omega»

Подробнее

6М073700–Обогащение полезных ископаемых 6М073700 ...

дробилок, мельниц. ... particle size distribution of mineral raw materials ... investigations of the theory of rock failure . .... Technology laboratory experiment.

Подробнее

ROCKLABS® - Standard Equipment - BOYD® Crusher

... maximum amount of crushing, reducing samples by 25 times the original size. ... (excluding wear parts) and labour if used under normal laboratory conditions.

Подробнее

N 5 - Промышленный вестник

1 июн 2015 ... E-mail: [email protected] www.spectr-lab.ru ... размер с последующей полировкой коренных и шатун - ных шеек. ... ные телеги, дробилки, транспортеры, ...... рок сталей: 20; 09Г2С; 15Х5М; 12Х18Н10Т; 10Х17Н13М2Т;.

Подробнее

Kazakh US exhibition banishes country's Borat image - WorldNews

17 сен 2012 ... In the 2006 spoof documentary Borat, the eponymous hero travels from Kazakhstan to the US to learn about the American way of life. Given the...

Подробнее
Copyright © 2018, Шанхай SME горнодобывающей и строительной техники Co., Ltd. Все права защищены. Карта сайта